MultiLink Spooks: The Greater Good 2015 720p WEB-DL DD5.1 H.264-RARBG ~ Điệp Viên Siêu Đẳng

itzonetoday

New Member
4/8/15
40
0
0
50
Phim Phiêu lưu Hành động Siêu HAY BOM TẤN 2015 không thể bỏ qua
Spooks: The Greater Good 2015 720p WEB-DL DD5.1 H.264-RARBG
Điệp Viên Siêu Đẳng
(Kit Harington, Tuppence Middleton, Jennifer Ehle, Lara Pulver)



Nội dung chính của phim nói về chuyện một ngày nọ, trong một lần di chuyển phạm nhân, tổ chức MI-5 đã để sổng mất một tên thủ lĩnh nhóm khủng bố tên là Adem Qasim. Mọi người trong tổ chức MI-5 đều đổ hết tội lỗi cho người chỉ huy lúc đó là Harry Pearce. Ông bị cách chức, bị nghi ngờ phản bội và phải giả vờ tự sát để đi tìm lại công bằng cho bản thân. Ông liên hệ với cháu trai của mình là Will Holloway, người trước đây đã bị ông đuổi ra khỏi MI-5 do không hoàn thành một nhiệm vụ. Hai người cùng nhau tìm cách ngăn chặn những âm mưu đánh bom của Qasim và tìm ra kẻ phản bội trong tổ chức.

Mã:
Mã:
Video ID : 1 Format : AVC Format/Info : Advanced Video Codec Format profile : [email protected] Format settings, CABAC : No Format settings, ReFrames : 2 frames Codec ID : V_MPEG4/ISO/AVC Duration : 1h 44mn Bit rate : 3 860 Kbps Width : 1 280 pixels Height : 532 pixels Display aspect ratio : 2.40:1 Frame rate mode : Constant Frame rate : 24.000 fps Color space : YUV Chroma subsampling : 4:2:0 Bit depth : 8 bits Scan type : Progressive Bits/(Pixel*Frame) : 0.236 Stream size : 2.81 GiB (89%) Title : Spooks.The.Greater.Good.2015.720p.WEB-DL.DD5.1.H264-RARBG Language : English Default : Yes Forced : No Color range : Limited Color primaries : BT.709 Transfer characteristics : BT.709 Matrix coefficients : BT.709 Audio ID : 2 Format : AC-3 Format/Info : Audio Coding 3 Mode extension : CM (complete main) Format settings, Endianness : Big Codec ID : A_AC3 Duration : 1h 44mn Bit rate mode : Constant Bit rate : 384 Kbps Channel(s) : 6 channels Channel positions : Front: L C R, Side: L R, LFE Sampling rate : 48.0 KHz Compression mode : Lossy Stream size : 286 MiB (9%) Title : Spooks.The.Greater.Good.2015.720p.WEB-DL.DD5.1.H264-RARBG Language : English Default : Yes Forced : No


Full Screenshots:

Phụ Đề:


Link FSHARE:
Bạn nhấn nút Thanks, sau đó nhấn F5 để lấy link nhé!

Link TENLUA:
Bạn nhấn nút Thanks, sau đó nhấn F5 để lấy link nhé!
Nguồn ITZONE
$Link$
 

Facebook Comment

Find Diễn đàn Công nghệ thông tin và truyền thông on mobile

Thành viên trực tuyến

Không có thành viên nào trực tuyến.

Thống kê diễn đàn

Chủ đề
31.050
Bài viết
33.103
Thành viên
5.957
Thành viên mới nhất
susu93439

Mobile app users
0
Latest mobile user

Tài nguyên mới